Register on the forum now to remove ALL ads + popups + get access to tons of hidden content for members only!
vintage erotica forum vintage erotica forum vintage erotica forum
vintage erotica forum
Home Home
Go Back   Vintage Erotica Forums > Classic Celebs, Beauty & Elegance > Classic Celebrities > Celebrity, Film & Television Discussion

Follow Vintage Erotica Forum on Twitter
Best Porn Sites Register FAQ Members List Calendar Mark Forums Read

Notices
Celebrity, Film & Television Discussion For all of your chat, opinion and thoughts on mainstream celebrities, film and television programmes.


Reply
 
Thread Tools Display Modes
Old 07-16-2011, 02:02 PM   #11
doctor_c
Senior Member
 
Join Date: Jan 2009
Posts: 153
Thanks: 504
Thanked 2,760 Times in 142 Posts
doctor_c 10000+doctor_c 10000+doctor_c 10000+doctor_c 10000+doctor_c 10000+doctor_c 10000+doctor_c 10000+doctor_c 10000+doctor_c 10000+doctor_c 10000+doctor_c 10000+
Default Lisa McCune in Rake S01E02 (Rake vs Marx)


Last edited by andw; 02-10-2019 at 02:40 PM.. Reason: Removed broken VEF link
doctor_c is offline   Reply With Quote
The Following 19 Users Say Thank You to doctor_c For This Useful Post:
Old 10-08-2011, 12:50 AM   #12
SuperHal0004
Junior Member
 
Join Date: Sep 2010
Posts: 6
Thanks: 154
Thanked 59 Times in 6 Posts
SuperHal0004 100+SuperHal0004 100+SuperHal0004 100+SuperHal0004 100+
Default Lisa Kay (Heartbeat's Nurse Carol Cassidy) in Hidden

Hidden 2011 http://www.imdb.com/title/tt1967685/


Last edited by SuperHal0004; 10-08-2011 at 01:09 AM.. Reason: Thre are better iimages by Spandrel, Moon raker and Mitch 345 on the "Lisa Kay - Heartbeat" thread.
SuperHal0004 is offline   Reply With Quote
Old 07-13-2013, 04:15 AM   #13
GailFan
Infrequent Member
 
GailFan's Avatar
 
Join Date: Aug 2007
Location: Illa me dereliquit, hic ergo sum.
Posts: 2,201
Thanks: 19,423
Thanked 43,102 Times in 2,169 Posts
GailFan 175000+GailFan 175000+GailFan 175000+GailFan 175000+GailFan 175000+GailFan 175000+GailFan 175000+GailFan 175000+GailFan 175000+GailFan 175000+GailFan 175000+
Default Fast Track (US TV series, 1997)

Very brief topless scene in the 1997 Showtime series "Fast Track".



http://www.filefactory.com/file/6i9u..._FastTrack.avi

Duration: 00:01:36.05, start: 0.000000, bitrate: 2175 kb/s
Stream #0.0: Video: mpeg4, yuv420p, 720x480 [PAR 8:9 DAR 4:3], 29.97 fps, 29.97 tbr, 29.97 tbn, 2997 tbc
Stream #0.1: Audio: mp2, 44100 Hz, 2 channels, s16, 128 kb/s

Filesize: 26,119,138 bytes

(Created with FFMpeg with the 4CC set to XVID for compatibility)
__________________
Tentatively returning to the world of VEF. Not posting very much, but can reply to PMs.

Last edited by GailFan; 07-13-2013 at 04:18 AM.. Reason: US not Canadian
GailFan is offline   Reply With Quote
The Following 18 Users Say Thank You to GailFan For This Useful Post:
Old 07-25-2013, 02:50 PM   #14
togolane
Vintage Member
 
Join Date: Apr 2009
Posts: 1,350
Thanks: 5
Thanked 27,689 Times in 1,354 Posts
togolane 100000+togolane 100000+togolane 100000+togolane 100000+togolane 100000+togolane 100000+togolane 100000+togolane 100000+togolane 100000+togolane 100000+togolane 100000+
Default

Monica Talma is the only woman I could identify.
http://www.filefactory.com/file/6i9u..._FastTrack.avi




togolane is offline   Reply With Quote
The Following 11 Users Say Thank You to togolane For This Useful Post:
Old 09-08-2013, 06:00 AM   #15
GailFan
Infrequent Member
 
GailFan's Avatar
 
Join Date: Aug 2007
Location: Illa me dereliquit, hic ergo sum.
Posts: 2,201
Thanks: 19,423
Thanked 43,102 Times in 2,169 Posts
GailFan 175000+GailFan 175000+GailFan 175000+GailFan 175000+GailFan 175000+GailFan 175000+GailFan 175000+GailFan 175000+GailFan 175000+GailFan 175000+GailFan 175000+
Default More from Fast Track

A couple more brief clips from the 1997 Showtime TV series "Fast Track"



http://www.filefactory.com/file/6nsz...rack_S1Ep2.avi

Size: 5,982,528 bytes

Duration: 00:00:24.36, start: 0.000000, bitrate: 1964 kb/s
Stream #0:0: Video: mpeg4 (Advanced Simple Profile) (XVID / 0x44495658), yuv420p, 704x464 [SAR 29:33 DAR 4:3], 29.97 fps, 29.97 tbr, 29.97 tbn, 2997 tbc
Stream #0:1: Audio: mp2 (P[0][0][0] / 0x0050), 44100 Hz, stereo, s16p, 128 kb/s

---------



http://www.filefactory.com/file/6tc6...ack_S1Ep12.avi

Size: 3,877,462 bytes

Duration: 00:00:14.21, start: 0.000000, bitrate: 2182 kb/s
Stream #0:0: Video: mpeg4 (Advanced Simple Profile) (XVID / 0x44495658), yuv420p, 704x464 [SAR 29:33 DAR 4:3], 29.97 fps, 29.97 tbr, 29.97 tbn, 2997 tbc
Stream #0:1: Audio: mp2 (P[0][0][0] / 0x0050), 44100 Hz, stereo, s16p, 128 kb/s

(Both created with FFMpeg with the 4CC set to XVID for compatibility)

In case you're wondering, they're two different actresses playing the same character, town tramp Mona Black.
__________________
Tentatively returning to the world of VEF. Not posting very much, but can reply to PMs.
GailFan is offline   Reply With Quote
The Following 18 Users Say Thank You to GailFan For This Useful Post:
Old 10-28-2013, 05:45 AM   #16
GailFan
Infrequent Member
 
GailFan's Avatar
 
Join Date: Aug 2007
Location: Illa me dereliquit, hic ergo sum.
Posts: 2,201
Thanks: 19,423
Thanked 43,102 Times in 2,169 Posts
GailFan 175000+GailFan 175000+GailFan 175000+GailFan 175000+GailFan 175000+GailFan 175000+GailFan 175000+GailFan 175000+GailFan 175000+GailFan 175000+GailFan 175000+
Default More Carmelina Lamanna from Fast Track

Yet more clips from the 1997 TV show "Fast Track". The first one I missed (it's very brief) the first time I ran through the series (and only found it thanks to IMDB's "female nudity" tag), the second I initially didn't bother to rip because it's in b&w, but it's a cute scene so I might as well.



http://www.filefactory.com/file/29bl...ack_S1Ep13.avi or http://depositfiles.com/files/eon2j9x1o

Size: 8,888,868 bytes

Duration: 00:00:29.10, start: 0.000000, bitrate: 2443 kb/s
Stream #0:0: Video: mpeg4 (Advanced Simple Profile) (XVID / 0x44495658), yuv420p, 720x480 [SAR 8:9 DAR 4:3], 30 tbr, 30 tbn, 30 tbc
Stream #0:1: Audio: mp2 (P[0][0][0] / 0x0050), 44100 Hz, stereo, s16p, 128 kb/s

---------



http://www.filefactory.com/file/3fvs...ack_S1Ep21.avi or http://depositfiles.com/files/7oefnk0ba

Size: 25,096,198 bytes

Duration: 00:01:22.78, start: 0.000000, bitrate: 2425 kb/s
Stream #0:0: Video: mpeg4 (Advanced Simple Profile) (XVID / 0x44495658), yuv420p, 720x480 [SAR 8:9 DAR 4:3], 29.97 fps, 29.97 tbr, 29.97 tbn, 2997 tbc
Stream #0:1: Audio: mp2 (P[0][0][0] / 0x0050), 44100 Hz, stereo, s16p, 128 kb/s

(Both created with FFMpeg with the 4CC set to XVID for compatibility)
__________________
Tentatively returning to the world of VEF. Not posting very much, but can reply to PMs.
GailFan is offline   Reply With Quote
The Following 13 Users Say Thank You to GailFan For This Useful Post:
Old 11-01-2013, 08:25 AM   #17
Moon Raker
Veteran Member
 
Moon Raker's Avatar
 
Join Date: Oct 2007
Location: UK
Posts: 9,270
Thanks: 7,552
Thanked 162,066 Times in 9,426 Posts
Moon Raker 750000+Moon Raker 750000+Moon Raker 750000+Moon Raker 750000+Moon Raker 750000+Moon Raker 750000+Moon Raker 750000+Moon Raker 750000+Moon Raker 750000+Moon Raker 750000+Moon Raker 750000+
Default Gretchen Mol - 'Boardwalk Empire'

And staying with the 2010-2013 HBO TV series 'Boardwalk Empire', this post features Gretchen Mol.



Type: AVI, size: 10 MB, duration: 41s.
Link: http://www.embedupload.com/?d=3OYWRYLPRW
Moon Raker is offline   Reply With Quote
The Following 7 Users Say Thank You to Moon Raker For This Useful Post:
Old 11-04-2013, 08:53 AM   #18
Moon Raker
Veteran Member
 
Moon Raker's Avatar
 
Join Date: Oct 2007
Location: UK
Posts: 9,270
Thanks: 7,552
Thanked 162,066 Times in 9,426 Posts
Moon Raker 750000+Moon Raker 750000+Moon Raker 750000+Moon Raker 750000+Moon Raker 750000+Moon Raker 750000+Moon Raker 750000+Moon Raker 750000+Moon Raker 750000+Moon Raker 750000+Moon Raker 750000+
Default Valentina Cervi - 'True Blood'

A return to the 2008-2013 HBO TV series 'True Blood' here with a clip which features Valentina Cervi.



Type: AVI, size: 145 MB, duration:4m06s.
Link: http://www.embedupload.com/?d=55IJGRVJIT
Moon Raker is offline   Reply With Quote
The Following 8 Users Say Thank You to Moon Raker For This Useful Post:
Old 11-05-2013, 09:01 AM   #19
Moon Raker
Veteran Member
 
Moon Raker's Avatar
 
Join Date: Oct 2007
Location: UK
Posts: 9,270
Thanks: 7,552
Thanked 162,066 Times in 9,426 Posts
Moon Raker 750000+Moon Raker 750000+Moon Raker 750000+Moon Raker 750000+Moon Raker 750000+Moon Raker 750000+Moon Raker 750000+Moon Raker 750000+Moon Raker 750000+Moon Raker 750000+Moon Raker 750000+
Default Maddie Jo Landers - 'Boardwalk Empire'

Back to the 2010-2013 HBO TV series 'Boardwalk Empire' and this clip features Maddie Jo Landers.



Type: AVI, size: 13 MB, duration: 1m12s.
Link: http://www.embedupload.com/?d=8JZNH0FWAE
Moon Raker is offline   Reply With Quote
The Following 7 Users Say Thank You to Moon Raker For This Useful Post:
Old 11-06-2013, 09:17 AM   #20
Moon Raker
Veteran Member
 
Moon Raker's Avatar
 
Join Date: Oct 2007
Location: UK
Posts: 9,270
Thanks: 7,552
Thanked 162,066 Times in 9,426 Posts
Moon Raker 750000+Moon Raker 750000+Moon Raker 750000+Moon Raker 750000+Moon Raker 750000+Moon Raker 750000+Moon Raker 750000+Moon Raker 750000+Moon Raker 750000+Moon Raker 750000+Moon Raker 750000+
Default Anna Camp - 'True Blood'

Back to the 2008-2013 HBO TV series 'True Blood' now for this clip which features Anna Camp.



Type: AVI, size: 31 MB, duration: 48s.
Link: http://www.embedupload.com/?d=6WIOJ5L1YQ
Moon Raker is offline   Reply With Quote
The Following 5 Users Say Thank You to Moon Raker For This Useful Post:
Reply

Thread Tools
Display Modes

Posting Rules
You may not post new threads
You may not post replies
You may not post attachments
You may not edit your posts

BB code is On
Smilies are On
[IMG] code is On
HTML code is Off

Forum Jump




All times are GMT. The time now is 07:30 AM.






vBulletin Optimisation provided by vB Optimise v2.6.1 (Pro) - vBulletin Mods & Addons Copyright © 2019 DragonByte Technologies Ltd.