Register on the forum now to remove ALL ads + popups + get access to tons of hidden content for members only!
vintage erotica forum vintage erotica forum vintage erotica forum
vintage erotica forum

Go Back   Vintage Erotica Forums > Classic Models > Softcore Models

Follow Vintage Erotica Forum on Twitter
Best Porn Sites Meet Our Girls Register FAQ Members List Calendar Mark Forums Read

Notices
Softcore Models Playmates, Page 3 girls, magazine and film nude models that started their career in 1995 or before.


Reply
 
Thread Tools Display Modes
Old 09-12-2012, 10:06 PM   #21
beutelwolf
paludicolous paravant
 
beutelwolf's Avatar
 
Join Date: Sep 2005
Location: Perfidious Albion
Posts: 21,942
Thanks: 55,141
Thanked 498,669 Times in 21,896 Posts
beutelwolf 2500000+beutelwolf 2500000+beutelwolf 2500000+beutelwolf 2500000+beutelwolf 2500000+beutelwolf 2500000+beutelwolf 2500000+beutelwolf 2500000+beutelwolf 2500000+beutelwolf 2500000+beutelwolf 2500000+
Default

beutelwolf is online now   Reply With Quote
Old 12-28-2012, 08:21 PM   #22
smoerre-broed
Vintage Member
 
Join Date: Jan 2008
Posts: 420
Thanks: 8,003
Thanked 8,786 Times in 424 Posts
smoerre-broed 25000+smoerre-broed 25000+smoerre-broed 25000+smoerre-broed 25000+smoerre-broed 25000+smoerre-broed 25000+smoerre-broed 25000+smoerre-broed 25000+smoerre-broed 25000+smoerre-broed 25000+smoerre-broed 25000+
Default

smoerre-broed is offline   Reply With Quote
Old 06-13-2013, 06:29 AM   #23
beutelwolf
paludicolous paravant
 
beutelwolf's Avatar
 
Join Date: Sep 2005
Location: Perfidious Albion
Posts: 21,942
Thanks: 55,141
Thanked 498,669 Times in 21,896 Posts
beutelwolf 2500000+beutelwolf 2500000+beutelwolf 2500000+beutelwolf 2500000+beutelwolf 2500000+beutelwolf 2500000+beutelwolf 2500000+beutelwolf 2500000+beutelwolf 2500000+beutelwolf 2500000+beutelwolf 2500000+
Default


Freitag 1986 no 1
beutelwolf is online now   Reply With Quote
Old 06-27-2013, 02:06 PM   #24
effCup
Vintage Idiot
 
effCup's Avatar
 
Join Date: Feb 2012
Location: History
Posts: 15,832
Thanks: 176,642
Thanked 192,827 Times in 15,690 Posts
effCup 750000+effCup 750000+effCup 750000+effCup 750000+effCup 750000+effCup 750000+effCup 750000+effCup 750000+effCup 750000+effCup 750000+effCup 750000+
Default Sonja Martin in Mayfair

This is largely an info. post. If mods. think it's in the wrong place they can move/bin it.

Mayfair 19-11, Nov 1984 featured a model named "Susanna Lancaster" as its GotM as shown on CC's site, linked from here. Several same or quite similar images are available within this thread, albeit perhaps scanned from other publications:
Quote:
Originally Posted by goldentaurus2001 View Post
Similar settings (lower half of first):
Quote:
Originally Posted by andromeda2007 View Post

Again:
Quote:
Originally Posted by bourschwa View Post
& likewise, with last transposed:
Quote:
Originally Posted by bourschwa View Post
Office Boy also earlier identified the Mayfair 24-11, Nov 1989 model named "Philippa Andrews" as Sonja Martin. Scans here courtesy of Baxter1971. Distinctive freckles on nose, cheek, and under her left breast match (e.g. compare 3-part Lui cf earlier in this thread).

Last edited by effCup; 02-24-2016 at 08:58 AM.. Reason: updated cc link
effCup is offline   Reply With Quote
Old 08-13-2013, 05:59 PM   #25
flor rechi
I got myself banned
 
Join Date: Nov 2011
Posts: 344
Thanks: 11,368
Thanked 3,135 Times in 212 Posts
flor rechi 10000+flor rechi 10000+flor rechi 10000+flor rechi 10000+flor rechi 10000+flor rechi 10000+flor rechi 10000+flor rechi 10000+flor rechi 10000+flor rechi 10000+flor rechi 10000+
Default

in ph cover july 1983

flor rechi is offline   Reply With Quote
Old 10-27-2013, 01:03 PM   #26
tomesing
Xxphd Fan
 
tomesing's Avatar
 
Join Date: Feb 2008
Location: Mönchengladbach
Posts: 6,760
Thanks: 79,010
Thanked 200,953 Times in 6,764 Posts
tomesing 1000000+tomesing 1000000+tomesing 1000000+tomesing 1000000+tomesing 1000000+tomesing 1000000+tomesing 1000000+tomesing 1000000+tomesing 1000000+tomesing 1000000+tomesing 1000000+
Default

In "Praline" No.17 1985






tomesing
tomesing is offline   Reply With Quote
Old 11-06-2013, 02:07 PM   #27
tenfan
Vintage Member
 
tenfan's Avatar
 
Join Date: Nov 2008
Posts: 1,380
Thanks: 10,256
Thanked 31,698 Times in 1,412 Posts
tenfan 100000+tenfan 100000+tenfan 100000+tenfan 100000+tenfan 100000+tenfan 100000+tenfan 100000+tenfan 100000+tenfan 100000+tenfan 100000+tenfan 100000+
Default

A couple of Sonja - Thanks to vlublinex for the ID:
__________________
I spent the first half of my adult life drinking beer and chasing women. The rest has been pretty much of a waste.
tenfan is offline   Reply With Quote
Old 10-27-2014, 02:08 AM   #28
GailFan
Infrequent Member
 
GailFan's Avatar
 
Join Date: Aug 2007
Location: South Seas
Posts: 2,053
Thanks: 11,196
Thanked 39,107 Times in 2,013 Posts
GailFan 175000+GailFan 175000+GailFan 175000+GailFan 175000+GailFan 175000+GailFan 175000+GailFan 175000+GailFan 175000+GailFan 175000+GailFan 175000+GailFan 175000+
Default

A few clips from Melody of Passion:



http://www.filefactory.com/file/4exd...martin-02a.mov

Duration: 00:00:09.60, start: 0.000000, bitrate: 970 kb/s
Stream #0:0(eng): Video: svq1 (SVQ1 / 0x31515653), yuv410p, 400x300, 920 kb/s, 15 fps, 15 tbr, 600 tbn, 600 tbc
Metadata:
creation_time : 2001-05-18 15:27:48
handler_name : Apple Alias Data Handler
Stream #0:1(eng): Audio: qdm2 (QDM2 / 0x324D4451), 22050 Hz, mono, s16, 48 kb/s
Metadata:
creation_time : 2001-05-18 15:27:48
handler_name : Apple Alias Data Handler

1,164,026 bytes

----------



http://www.filefactory.com/file/66ye...martin-02b.mov

Duration: 00:00:16.67, start: 0.000000, bitrate: 957 kb/s
Stream #0:0(eng): Video: svq1 (SVQ1 / 0x31515653), yuv410p, 400x300, 908 kb/s, 15 fps, 15 tbr, 600 tbn, 600 tbc
Metadata:
creation_time : 2001-05-18 15:55:40
handler_name : Apple Alias Data Handler
Stream #0:1(eng): Audio: qdm2 (QDM2 / 0x324D4451), 22050 Hz, mono, s16, 48 kb/s
Metadata:
creation_time : 2001-05-18 15:55:40
handler_name : Apple Alias Data Handler

1,994,331 bytes

---------



http://www.filefactory.com/file/3mrs...-martin-03.mov

Duration: 00:00:19.33, start: 0.000000, bitrate: 944 kb/s
Stream #0:0(eng): Video: svq1 (SVQ1 / 0x31515653), yuv410p, 400x300, 895 kb/s, 15 fps, 15 tbr, 600 tbn, 600 tbc
Metadata:
creation_time : 2001-05-18 16:02:08
handler_name : Apple Alias Data Handler
Stream #0:1(eng): Audio: qdm2 (QDM2 / 0x324D4451), 22050 Hz, mono, s16, 48 kb/s
Metadata:
creation_time : 2001-05-18 16:02:08
handler_name : Apple Alias Data Handler

2,282,414 bytes
__________________
I am no longer a regular visitor to VEF. If you PM me, please do not expect a reply. Thanks.
GailFan is offline   Reply With Quote
Old 12-10-2014, 07:13 AM   #29
bomshel
Senior Member
 
Join Date: Aug 2011
Posts: 274
Thanks: 11
Thanked 5,697 Times in 405 Posts
bomshel 25000+bomshel 25000+bomshel 25000+bomshel 25000+bomshel 25000+bomshel 25000+bomshel 25000+bomshel 25000+bomshel 25000+bomshel 25000+bomshel 25000+
Default

Ahava Tzeira

Dead link removed
25Mb - 0:03:01 - 870x680 - avi


Die Unglaublichen Abenteuer des Guru Jakob

Dead link removed
9Mb - 0:00:55 - 760x464 - avi


Emmanuelle

Dead link removed
32Mb - 0:02:44 - 656x432 - AVI


Dead link removed
57Mb - 0:03:24 - 720x400 - avi


Lemon Popsicle

Dead link removed
20Mb - 0:02:20 - 736x424 - avi


Red Heat - Unschuld in Ketten

Dead link removed
3Mb - 0:00:21 - 760x432 - avi
bomshel is offline   Reply With Quote
The Following 16 Users Say Thank You to bomshel For This Useful Post:
Old 02-24-2016, 08:33 AM   #30
kaalpani
Vintage Member
 
Join Date: Dec 2006
Posts: 6,140
Thanks: 1,015
Thanked 169,315 Times in 6,124 Posts
kaalpani 750000+kaalpani 750000+kaalpani 750000+kaalpani 750000+kaalpani 750000+kaalpani 750000+kaalpani 750000+kaalpani 750000+kaalpani 750000+kaalpani 750000+kaalpani 750000+
Default Sonja in Erotike magazine


Last edited by kaalpani; 08-21-2018 at 09:47 AM.. Reason: new host
kaalpani is offline   Reply With Quote
Reply

Thread Tools
Display Modes

Posting Rules
You may not post new threads
You may not post replies
You may not post attachments
You may not edit your posts

BB code is On
Smilies are On
[IMG] code is On
HTML code is Off

Forum Jump




All times are GMT. The time now is 09:36 PM.






vBulletin Optimisation provided by vB Optimise v2.6.1 (Pro) - vBulletin Mods & Addons Copyright © 2018 DragonByte Technologies Ltd.